Салават Фатхетдинов - 'И туган тел, и матур тел...' (21 сезон) [2009, Музыкальная программа, концерт, DVDRip]

Салават Фатхетдинов - 'И туган тел, и матур тел...' (21 сезон) [2009, Музыкальная программа, концерт, DVDRip]

Сообщение Leopold49 » 16 май 2017, 06:40

  • Постеры
  • Скриншоты
Салават Фатхетдинов - 21 сезон - 'И туган тел, и матур тел...'

Оригинальное название: Салават Фатхетдинов - 21 сезон - 'И туган тел, и матур тел...'
Жанр: Музыкальная программа, концерт
Дата выхода: 2009
Перевод: Оригинал
Страна: Россия
Качество: DVDRip
Продолжительность: 02:37:11

Видео: 720x400 (1.80:1), 25 fps, XviD build 50 ~2918 kbps avg, 0.41 bit/pixel
Аудио: 48 kHz, MPEG Layer 3, 2 ch, ~192.00 kbps avg

Запись 21 сезона Заслуженного артиста Российской Федерации и Народного артиста Республики Татарстан Салавата Фатхетдинова.

01. Рэхмэтлебез, эткэй-энкэй
02. Тик сина
03. Яратканны юксыну жинел
04. Яратамын hаманда
05. Зульфат Фахретдинов "Кайтам инде"
06. Ин зур ялгышым
07. Сонгы очрашу
08. Сагышлымы эллэ жаннарын?..
09. Ришат Фазлиахметов "Бик курэсем килэ"
10. Лебибэ "Салкын чишмэ"
11. Яшьлегем хислэре
12. Золэйха
13. Онсэ авылы кое
14. Тан жыры
15. Поппури
16. Сагынырсын
17. Купме коттек бу мизгелне
18. Кузлэреме кара
19. Рэхмэт сина
20. Лебибэ "Hэрвакыт исемдэ"
21. Ришат Фазлиахметов "Эх, жаныем"
22. Зульфат Фахретдинов "Сина да, мина да"
23. Тахир Гайнуллин "Намазлыгын котэ"
24. Яратмсан - яратырсын
25. Рустем Фатхетдинов & Лебибэ "Яратмсан - яратырсын"
26. Яшьлегемэ хатлар язам
27. Яшэу, барыбер кызык
28. Туган тел


Общее
Полное имя : ..\Салават Фатхетдинов - 21 сезон (2009)(DVDRip).avi
Формат : AVI
Формат/Информация : Audio Video Interleave
Профиль формата : OpenDML
Размер файла : 3,42 Гбайт
Продолжительность : 2 ч. 37 м.
Общий поток : 3118 Кбит/сек
Программа кодирования : VirtualDubMod 1.5.4.1 (build 2178/release)
Библиотека кодирования : VirtualDubMod build 2178/release

Видео
Идентификатор : 0
Формат : MPEG-4 Visual
Профиль формата : Advanced Simple@L5
Параметр BVOP формата : Нет
Параметр QPel формата : Нет
Параметр GMC формата : Без точки перехода
Параметр матрицы формата : Выборочная
Идентификатор кодека : XVID
Идентификатор кодека/Подсказка : XviD
Продолжительность : 2 ч. 37 м.
Битрейт : 2918 Кбит/сек
Ширина : 720 пикселей
Высота : 400 пикселей
Соотношение сторон : 16:9
Частота кадров : 25,000 кадров/сек
Цветовое пространство : YUV
Субдискретизация насыщенности : 4:2:0
Битовая глубина : 8 бит
Тип развёртки : Прогрессивная
Метод сжатия : С потерями
Бит/(Пиксели*Кадры) : 0.405
Размер потока : 3,20 Гбайт (94%)
Библиотека кодирования : XviD 1.2.1 (UTC 2008-12-04)

Аудио
Идентификатор : 1
Формат : MPEG Audio
Версия формата : Version 1
Профиль формата : Layer 3
Режим : Joint stereo
Расширение режима : MS Stereo
Идентификатор кодека : 55
Идентификатор кодека/Подсказка : MP3
Продолжительность : 2 ч. 37 м.
Вид битрейта : Постоянный
Битрейт : 192 Кбит/сек
Каналы : 2 канала
Частота : 48,0 КГц
Метод сжатия : С потерями
Размер потока : 216 Мбайт (6%)
Выравнивание : Соединение по промежуткам
Продолжительность промежутка : 80 мс. (2,00 видеокадра)
Время предзагрузки промежутка : 504 мс.
Библиотека кодирования : LAME3.98r
Настройки программы : -m j -V 4 -q 2 -lowpass 18.6 -b 192
Язык : English
Аватара пользователя
Leopold49
 
Раздал: 2.44 ТБ
Скачал: 44.48 ГБ
Ратио: 56.063
Сообщения: 757
Зарегистрирован: 28 дек 2011, 09:02
Откуда: Tomsk
  • Торрент
Автор: Leopold49 Хэш: ---
Добавлен: 26 мар 2019, 08:31 Приватный: Нет (DHT включён)
Статус: Проверен
Размер: 3.42 ГБ (3 675 707 392 байт)
Изменил:
---
Скачали: 18 (Раздающих: 0%)
Причина:
---
Здоровье: 100%
Сидеров: 1 Личеров: 0
Скорость раздачи: 0 байт/сек Скорость скачивания: 0 байт/сек
Последний сидер: 5 часов 47 минут 36 секунд назад Последний личер: 1 месяц 5 дней 17 часов 35 минут 6 секунд назад
Для скачивания торрента необходимо зарегистрироваться или войти на трекер.

Re: Салават Фатхетдинов - 'И туган тел, и матур тел...' (21 сезон) [2009, Музыкальная программа, концерт, DVDRip]

Сообщение fayoda » 10 мар 2019, 16:55

Встаньте, пожалуйста, на раздачу.
fayoda
Пользователь
Пользователь
 
Раздал: 0 байт
Скачал: 0 байт
Ратио: Inf.
Сообщения: 2
Зарегистрирован: 10 мар 2019, 16:50

Re: Салават Фатхетдинов - 'И туган тел, и матур тел...' (21 сезон) [2009, Музыкальная программа, концерт, DVDRip]

Сообщение Leopold49 » 11 мар 2019, 06:49

Увы диск был утерян и РИП тоже. Сам бы скачал и записал снова на диск для архива. Но есть варианты:
1. Подождать здесь, может сидер появится, что мало вероятно.
2. Скачать на RuTracker.org. Там есть и DVD9 и DVDRip.
3. Скачать с Яндекса мой вариант DVDRip (он взят на RuTracker но от исходного варианта отличается) https://yadi.sk/i/JZ9BDam_WoChig

ЗЫ: У меня сохранились только 22...28 сезоны. Все остальное утеряно, но есть на YouTube. Там есть от 4 сезоны до 30, но нету 19, 21, 23, 26.
Аватара пользователя
Leopold49
 
Раздал: 2.44 ТБ
Скачал: 44.48 ГБ
Ратио: 56.063
Сообщения: 757
Зарегистрирован: 28 дек 2011, 09:02
Откуда: Tomsk

Re: Салават Фатхетдинов - 'И туган тел, и матур тел...' (21 сезон) [2009, Музыкальная программа, концерт, DVDRip]

Сообщение fayoda » 11 мар 2019, 17:19

Leopold49, вот это спасибо за ссылочку! 23 сезон тоже скачать не могу. На рутрекере раздачи мертвые. У меня с 5 по 30 есть, часть с ютуба, часть со своих дисков, часть с торрентов. 14 сезон вообще две версии из разных городов.
fayoda
Пользователь
Пользователь
 
Раздал: 0 байт
Скачал: 0 байт
Ратио: Inf.
Сообщения: 2
Зарегистрирован: 10 мар 2019, 16:50

Re: Салават Фатхетдинов - 'И туган тел, и матур тел...' (21 сезон) [2009, Музыкальная программа, концерт, DVDRip]

Сообщение Leopold49 » 26 мар 2019, 08:34

Обновлен файл и торрент.
:)
Аватара пользователя
Leopold49
 
Раздал: 2.44 ТБ
Скачал: 44.48 ГБ
Ратио: 56.063
Сообщения: 757
Зарегистрирован: 28 дек 2011, 09:02
Откуда: Tomsk


Вернуться в Видео



Кто сейчас на конференции

Сейчас этот форум просматривают: нет зарегистрированных пользователей и гости: 6

Ресурс не предоставляет электронные версии произведений, а занимается лишь коллекционированием и каталогизацией ссылок, присылаемых и публикуемых на форуме нашими читателями. Если вы являетесь правообладателем какого-либо представленного материала и не желаете чтобы ссылка на него находилась в нашем каталоге, свяжитесь с нами и мы незамедлительно удалим её. Файлы для обмена на трекере предоставлены пользователями сайта, и администрация не несёт ответственности за их содержание. Просьба не заливать файлы, защищенные авторскими правами, а также файлы нелегального содержания!
cron