Ринат Рахматуллин - Тукта, янгыр (2011) [2011 г., Pop, Татарская эстрада, DVDRip]

Ринат Рахматуллин - Тукта, янгыр (2011) [2011 г., Pop, Татарская эстрада, DVDRip]

Сообщение Leopold49 » 04 авг 2012, 08:34

  • Постеры
Дата выхода: 2011
Оригинальное название: Ринат Рахматуллин - Тукта, янгыр (2011)
Жанр: Pop, Татарская эстрада
Описание: Запись нового концертного шоу Рината Рахматуллина - популярного татарского певца. В программе новые песни, специальные гости Ильназ Бах, Эльмира Сулейманова, а так же юмористы Эбри Хабриев и Раиль Садриев.

Продолжительность: 02:53:53
Формат аудио: MP3
Формат видео: XviD
Качество: DVDRip
Видео: 720x416 (1.73:1), 25 fps, XviD build 46 ~1489 kbps avg, 0.20 bit/pixel
Аудио: 48 kHz, MP3, 2 ch, ~192.00 kbps avg

01. Ринат Рахматуллин <Сагынам-сагынам>
02. Ринат Рахматуллин <Котэм>
03. Ринат Рахматуллин <Елатма син мине>
04. Ринат Рахматуллин <Алдалама мине>
05. Эльмира Солэйманова <Синен белэн>
06. Эльмира Солэйманова <Сандугачым-тургаем>
07. Эльмира Солэйманова <Этиемэ>
08. Эбри Хэбриев <Консультация> (юмор)
09. Ринат Рахматуллин <Чакырмадын туган коненэ>
10. Ринат Рахматуллин <Мэхэббэт вакытсыз уртэли>
11. Ринат Рахматуллин <Картайма эле, энкэй>
12. Ринат Рахматуллин <Сине генэ эзлимен>
13. Ринат Рахматуллин <Кулъяулык безне котэ>
14. Ринат Рахматуллин <Хэзер инде мин укенэм>
15. Ринат Рахматуллин <Сагыну жыры>
16. Ринат Рахматуллин <Ташлап китмэ>
17. Ринат Рахматуллин <Туган конен карлары>
18. Илназ Бах <Анла йорэгемне>
19. Илназ Бах <Ярый эле хатыннар бар>
20. Раил Садриев <Радиодан ишеткэннэр> (юмор)
21. Ринат Рахматуллин <Кайтсам туган авылыма>
22. Ринат Рахматуллин <Тормыш китабы>
23. Ринат Рахматуллин <Чакыр гына мине>
24. Ринат Рахматуллин <Тукта, янгыр>
25. Ринат Рахматуллин <Рэхмэт сина, тамашачым>









General
Complete name : E:\TatarMusicR\Ринат Рахматуллин - Тукта, янгыр (2011)\Ринат Рахматуллин - Тукта, янгыр (2011).avi
Format : AVI
Format/Info : Audio Video Interleave
Format profile : OpenDML
File size : 2.05 GiB
Duration : 2h 53mn
Overall bit rate : 1 691 Kbps
Writing application : VirtualDubMod 1.5.4.1 (build 2178/release)
Writing library : VirtualDubMod build 2178/release

Video
ID : 0
Format : MPEG-4 Visual
Format profile : Advanced Simple@L5
Format settings, BVOP : 1
Format settings, QPel : No
Format settings, GMC : No warppoints
Format settings, Matrix : Custom
Codec ID : XVID
Codec ID/Hint : XviD
Duration : 2h 53mn
Bit rate : 1 489 Kbps
Width : 720 pixels
Height : 416 pixels
Display aspect ratio : 1.731
Frame rate : 25.000 fps
Color space : YUV
Chroma subsampling : 4:2:0
Bit depth : 8 bits
Scan type : Progressive
Compression mode : Lossy
Bits/(Pixel*Frame) : 0.199
Stream size : 1.81 GiB (88%)
Writing library : XviD 1.1.2 (UTC 2006-11-01)

Audio
ID : 1
Format : MPEG Audio
Format version : Version 1
Format profile : Layer 3
Mode : Joint stereo
Codec ID : 55
Codec ID/Hint : MP3
Duration : 2h 53mn
Bit rate mode : Constant
Bit rate : 192 Kbps
Channel(s) : 2 channels
Sampling rate : 48.0 KHz
Compression mode : Lossy
Stream size : 239 MiB (11%)
Alignment : Aligned on interleaves
Interleave, duration : 80 ms (2.00 video frames)
Interleave, preload duration : 504 ms
Writing library : LAME3.98r
Encoding settings : -m j -V 4 -q 2 -lowpass 18.6 -b 192
Language : English
Аватара пользователя
Leopold49
 
Раздал: 2.64 ТБ
Скачал: 44.64 ГБ
Ратио: 60.482
Сообщения: 849
Зарегистрирован: 28 дек 2011, 09:02
Откуда: Tomsk
  • Торрент
Автор: Leopold49 Хэш: ---
Добавлен: 04 авг 2012, 08:37 Приватный: Нет (DHT включён)
Статус: Проверен
Размер: 2.05 ГБ (2 205 423 616 байт)
Изменил: zip (04 авг 2012, 11:54)
Скачали: 84 (Раздающих: 5%)
Причина:
---
Здоровье: 100%
Сидеров: 6 Личеров: 0
Скорость раздачи: 0 байт/сек Скорость скачивания: 0 байт/сек
Последний сидер: 8 часов 42 минуты 26 секунд назад Последний личер: 10 дней 13 часов 53 минуты 32 секунды назад
Для скачивания торрента необходимо зарегистрироваться или войти на трекер.

  • Похожие торренты
    Ответы
    Просмотры
    Последнее сообщение

Вернуться в Видео



Кто сейчас на конференции

Сейчас этот форум просматривают: нет зарегистрированных пользователей и гости: 1

cron
Ресурс не предоставляет электронные версии произведений, а занимается лишь коллекционированием и каталогизацией ссылок, присылаемых и публикуемых на форуме нашими читателями. Если вы являетесь правообладателем какого-либо представленного материала и не желаете чтобы ссылка на него находилась в нашем каталоге, свяжитесь с нами и мы незамедлительно удалим её. Файлы для обмена на трекере предоставлены пользователями сайта, и администрация не несёт ответственности за их содержание. Просьба не заливать файлы, защищенные авторскими правами, а также файлы нелегального содержания!
cron