(Pop, Татарская эстрада) [CD] VA - Музыкаль бомба [BMCD2007-066] - 2007, FLAC (tracks+.cue), lossless

(Pop, Татарская эстрада) [CD] VA - Музыкаль бомба [BMCD2007-066] - 2007, FLAC (tracks+.cue), lossless

Сообщение Rafail(Rafail.AS) » 04 май 2019, 08:59

  • Постеры
Жанр: Pop, Татарская эстрада
Носитель: CD
Страна-производитель диска (релиза): Россия, Татарстан
Год издания: 2007
Издатель (лейбл): Барс Рекордс
Номер по каталогу: BMCD2007-066
Аудиокодек: FLAC (*.flac)
Тип рипа: tracks+.cue
Битрейт аудио: lossless
Продолжительность: 01:19:39
Источник: собственный рип
Наличие сканов в содержимом раздачи: да

01. Ленар Сэйфиев - Сонга калма
02. Кон-тон - Беренче кар
03. Артур Хафизов - Коту
04. Puma - Борлегэн
05. Диана Тажетдинова - Яз килэ
06. Эмиль Айзатулла - Жэйге жылы янгыр
07. Румия Фэтхетдинова - Сагынам сине
08. Булат Жиhаншин - Синсез
09. Дилэ Нигъмэтуллина - Хатын-кыз бэхете (ремикс)
10. Илнур-Айрат - Йорэгемне ал кулларына
11. Гузэл Уразова - Син житмисен жанга (ремикс)
12. Салават Миннеханов - Дингез ярында (ремикс)
13. Эльнара Нурмохэммэтова - Без ике фэрештэ
14. Айфара - Омет
15. Альбина hэм Шакур - Конлэшу
16. Фэрит Таишев - Бер сэбэп
17. Азалия - Кошлар (ремикс)
18. Добер-Шатр - Кар кызы
19. Илназ Сафиуллин - Юллар
20. Иркэ - Хэллэремне сорама (ремикс)
21. Эссе - Тамчы
22. Ландыш Нигъмэтжанова - Кайда син
Exact Audio Copy V1.3 from 2. September 2016

Отчёт EAC об извлечении, выполненном 2. мая 2019, 14:09

Various Artists / Музыкаль бомба

Дисковод: ASUS DRW-24B5ST Adapter: 1 ID: 0

Режим чтения : Достоверность
Использование точного потока : Да
Отключение кэша аудио : Да
Использование указателей C2 : Нет

Коррекция смещения при чтении : 6
Способность читать области Lead-in и Lead-out : Нет
Заполнение пропущенных сэмплов тишиной : Да
Удаление блоков с тишиной в начале и конце : Нет
При вычислениях CRC использовались нулевые сэмплы : Да
Интерфейс : Встроенный Win32-интерфейс для Win NT/2000
Обработка зазоров : Добавлено к предыдущему треку

Выходной формат : Пользовательский кодировщик
Выбранный битрейт : 128 kBit/s
Качество : Высокий
Добавление ID3-тега : Нет
Утилита сжатия : C:\Program Files (x86)\Exact Audio Copy\Flac\flac.exe
Дополнительные параметры : -V -8 -T "Genre=%genre%" -T "Artist=%artist%" -T "Title=%title%" -T "Album=%albumtitle%" -T "Date=%year%" -T "Tracknumber=%tracknr%" -T "Comment=%comment%" %source%

TOC извлечённого CD

Трек | Старт | Длительность | Начальный сектор | Конечный сектор
---------------------------------------------------------------------
1 | 0:00.00 | 4:46.18 | 0 | 21467
2 | 4:46.18 | 3:05.34 | 21468 | 35376
3 | 7:51.52 | 3:49.31 | 35377 | 52582
4 | 11:41.08 | 3:03.23 | 52583 | 66330
5 | 14:44.31 | 3:02.73 | 66331 | 80053
6 | 17:47.29 | 3:23.45 | 80054 | 95323
7 | 21:10.74 | 3:16.06 | 95324 | 110029
8 | 24:27.05 | 3:54.20 | 110030 | 127599
9 | 28:21.25 | 4:21.52 | 127600 | 147226
10 | 32:43.02 | 3:24.53 | 147227 | 162579
11 | 36:07.55 | 3:46.63 | 162580 | 179592
12 | 39:54.43 | 3:30.49 | 179593 | 195391
13 | 43:25.17 | 3:23.38 | 195392 | 210654
14 | 46:48.55 | 3:18.65 | 210655 | 225569
15 | 50:07.45 | 3:21.19 | 225570 | 240663
16 | 53:28.64 | 3:08.35 | 240664 | 254798
17 | 56:37.24 | 3:13.45 | 254799 | 269318
18 | 59:50.69 | 5:12.68 | 269319 | 292786
19 | 65:03.62 | 3:02.58 | 292787 | 306494
20 | 68:06.45 | 3:42.10 | 306495 | 323154
21 | 71:48.55 | 4:05.15 | 323155 | 341544
22 | 75:53.70 | 3:45.22 | 341545 | 358441

Трек 1

Имя файла C:\VA - Музыкаль бомба (2007) [FLAC]\01. Ленар Сэйфиев - Сонга калма.wav

Длина предзазора 0:00:02.00

Пиковый уровень 89.1 %
Скорость извлечения 2.1 X
Качество трека 100.0 %
CRC теста 0F50BB9B
CRC копии 0F50BB9B
Трек не обнаружен в базе AccurateRip
Копирование... OK

Трек 2

Имя файла C:\VA - Музыкаль бомба (2007) [FLAC]\02. Кон-тон - Беренче кар.wav

Пиковый уровень 89.1 %
Скорость извлечения 2.2 X
Качество трека 100.0 %
CRC теста 75CB07A9
CRC копии 75CB07A9
Трек не обнаружен в базе AccurateRip
Копирование... OK

Трек 3

Имя файла C:\VA - Музыкаль бомба (2007) [FLAC]\03. Артур Хафизов - Коту.wav

Пиковый уровень 89.1 %
Скорость извлечения 2.1 X
Качество трека 99.9 %
CRC теста 6BD0F6BE
CRC копии 6BD0F6BE
Трек не обнаружен в базе AccurateRip
Копирование... OK

Трек 4

Имя файла C:\VA - Музыкаль бомба (2007) [FLAC]\04. Puma - Борлегэн.wav

Пиковый уровень 89.1 %
Скорость извлечения 2.5 X
Качество трека 100.0 %
CRC теста D591A543
CRC копии D591A543
Трек не обнаружен в базе AccurateRip
Копирование... OK

Трек 5

Имя файла C:\VA - Музыкаль бомба (2007) [FLAC]\05. Диана Тажетдинова - Яз килэ.wav

Пиковый уровень 89.1 %
Скорость извлечения 2.6 X
Качество трека 100.0 %
CRC теста 753F2452
CRC копии 753F2452
Трек не обнаружен в базе AccurateRip
Копирование... OK

Трек 6

Имя файла C:\VA - Музыкаль бомба (2007) [FLAC]\06. Эмиль Айзатулла - Жэйге жылы янгыр.wav

Пиковый уровень 89.1 %
Скорость извлечения 2.8 X
Качество трека 100.0 %
CRC теста FF70C836
CRC копии FF70C836
Трек не обнаружен в базе AccurateRip
Копирование... OK

Трек 7

Имя файла C:\VA - Музыкаль бомба (2007) [FLAC]\07. Румия Фэтхетдинова - Сагынам сине.wav

Пиковый уровень 89.1 %
Скорость извлечения 2.9 X
Качество трека 100.0 %
CRC теста 9E63F719
CRC копии 9E63F719
Трек не обнаружен в базе AccurateRip
Копирование... OK

Трек 8

Имя файла C:\VA - Музыкаль бомба (2007) [FLAC]\08. Булат Жиhаншин - Синсез.wav

Пиковый уровень 89.1 %
Скорость извлечения 3.0 X
Качество трека 100.0 %
CRC теста 06C2E81C
CRC копии 06C2E81C
Трек не обнаружен в базе AccurateRip
Копирование... OK

Трек 9

Имя файла C:\VA - Музыкаль бомба (2007) [FLAC]\09. Дилэ Нигъмэтуллина - Хатын-кыз бэхете (ремикс).wav

Пиковый уровень 89.1 %
Скорость извлечения 3.2 X
Качество трека 100.0 %
CRC теста 65A777A8
CRC копии 65A777A8
Трек не обнаружен в базе AccurateRip
Копирование... OK

Трек 10

Имя файла C:\VA - Музыкаль бомба (2007) [FLAC]\10. Илнур-Айрат - Йорэгемне ал кулларына.wav

Пиковый уровень 89.1 %
Скорость извлечения 3.3 X
Качество трека 100.0 %
CRC теста 8850FC3A
CRC копии 8850FC3A
Трек не обнаружен в базе AccurateRip
Копирование... OK

Трек 11

Имя файла C:\VA - Музыкаль бомба (2007) [FLAC]\11. Гузэл Уразова - Син житмисен жанга (ремикс).wav

Пиковый уровень 89.1 %
Скорость извлечения 3.4 X
Качество трека 100.0 %
CRC теста 434C0E8F
CRC копии 434C0E8F
Трек не обнаружен в базе AccurateRip
Копирование... OK

Трек 12

Имя файла C:\VA - Музыкаль бомба (2007) [FLAC]\12. Салават Миннеханов - Дингез ярында (ремикс).wav

Пиковый уровень 89.1 %
Скорость извлечения 3.5 X
Качество трека 100.0 %
CRC теста 2551251E
CRC копии 2551251E
Трек не обнаружен в базе AccurateRip
Копирование... OK

Трек 13

Имя файла C:\VA - Музыкаль бомба (2007) [FLAC]\13. Эльнара Нурмохэммэтова - Без ике фэрештэ.wav

Пиковый уровень 89.1 %
Скорость извлечения 3.0 X
Качество трека 99.9 %
CRC теста 5CADE3AD
CRC копии 5CADE3AD
Трек не обнаружен в базе AccurateRip
Копирование... OK

Трек 14

Имя файла C:\VA - Музыкаль бомба (2007) [FLAC]\14. Айфара - Омет.wav

Пиковый уровень 89.1 %
Скорость извлечения 3.1 X
Качество трека 99.9 %
CRC теста 47EB01BF
CRC копии 47EB01BF
Трек не обнаружен в базе AccurateRip
Копирование... OK

Трек 15

Имя файла C:\VA - Музыкаль бомба (2007) [FLAC]\15. Альбина hэм Шакур - Конлэшу.wav

Пиковый уровень 89.1 %
Скорость извлечения 3.7 X
Качество трека 100.0 %
CRC теста 54D9FFA2
CRC копии 54D9FFA2
Трек не обнаружен в базе AccurateRip
Копирование... OK

Трек 16

Имя файла C:\VA - Музыкаль бомба (2007) [FLAC]\16. Фэрит Таишев - Бер сэбэп.wav

Пиковый уровень 89.1 %
Скорость извлечения 3.7 X
Качество трека 100.0 %
CRC теста 43A8E7DA
CRC копии 43A8E7DA
Трек не обнаружен в базе AccurateRip
Копирование... OK

Трек 17

Имя файла C:\VA - Музыкаль бомба (2007) [FLAC]\17. Азалия - Кошлар (ремикс).wav

Пиковый уровень 89.1 %
Скорость извлечения 3.9 X
Качество трека 100.0 %
CRC теста F757EDBF
CRC копии F757EDBF
Трек не обнаружен в базе AccurateRip
Копирование... OK

Трек 18

Имя файла C:\VA - Музыкаль бомба (2007) [FLAC]\18. Добер-Шатр - Кар кызы.wav

Пиковый уровень 89.1 %
Скорость извлечения 4.2 X
Качество трека 100.0 %
CRC теста 4F62E02B
CRC копии 4F62E02B
Трек не обнаружен в базе AccurateRip
Копирование... OK

Трек 19

Имя файла C:\VA - Музыкаль бомба (2007) [FLAC]\19. Илназ Сафиуллин - Юллар.wav

Пиковый уровень 89.1 %
Скорость извлечения 4.0 X
Качество трека 100.0 %
CRC теста 059B521B
CRC копии 059B521B
Трек не обнаружен в базе AccurateRip
Копирование... OK

Трек 20

Имя файла C:\VA - Музыкаль бомба (2007) [FLAC]\20. Иркэ - Хэллэремне сорама (ремикс).wav

Пиковый уровень 89.1 %
Скорость извлечения 4.1 X
Качество трека 100.0 %
CRC теста F6E2A9CC
CRC копии F6E2A9CC
Трек не обнаружен в базе AccurateRip
Копирование... OK

Трек 21

Имя файла C:\VA - Музыкаль бомба (2007) [FLAC]\21. Эссе - Тамчы.wav

Пиковый уровень 89.1 %
Скорость извлечения 4.4 X
Качество трека 100.0 %
CRC теста D199005A
CRC копии D199005A
Трек не обнаружен в базе AccurateRip
Копирование... OK

Трек 22

Имя файла C:\VA - Музыкаль бомба (2007) [FLAC]\22. Ландыш Нигъмэтжанова - Кайда син.wav

Пиковый уровень 89.1 %
Скорость извлечения 4.3 X
Качество трека 100.0 %
CRC теста 6809EBE3
CRC копии 6809EBE3
Трек не обнаружен в базе AccurateRip
Копирование... OK

Ни одного трека нет в базе AccurateRip

Ошибок не произошло

Конец отчёта

==== Контрольная сумма отчёта CC5811F0F12E0B81FC2796E538920145B8A2867CF9572A4A580A30BAF0512C7F ====
REM DATE 2007
REM DISCID 5012AB16
REM COMMENT "ExactAudioCopy v1.3"
PERFORMER "Various Artists"
TITLE "Музыкаль бомба"
REM COMPOSER ""
FILE "01. Ленар Сэйфиев - Сонга калма.wav" WAVE
TRACK 01 AUDIO
TITLE "Сонга калма"
PERFORMER "Ленар Сэйфиев"
REM COMPOSER ""
FLAGS DCP
INDEX 01 00:00:00
FILE "02. Кон-тон - Беренче кар.wav" WAVE
TRACK 02 AUDIO
TITLE "Беренче кар"
PERFORMER "Кон-тон"
REM COMPOSER ""
FLAGS DCP
INDEX 01 00:00:00
FILE "03. Артур Хафизов - Коту.wav" WAVE
TRACK 03 AUDIO
TITLE "Коту"
PERFORMER "Артур Хафизов"
REM COMPOSER ""
FLAGS DCP
INDEX 01 00:00:00
FILE "04. Puma - Борлегэн.wav" WAVE
TRACK 04 AUDIO
TITLE "Борлегэн"
PERFORMER "Puma"
REM COMPOSER ""
FLAGS DCP
INDEX 01 00:00:00
FILE "05. Диана Тажетдинова - Яз килэ.wav" WAVE
TRACK 05 AUDIO
TITLE "Яз килэ"
PERFORMER "Диана Тажетдинова"
REM COMPOSER ""
FLAGS DCP
INDEX 01 00:00:00
FILE "06. Эмиль Айзатулла - Жэйге жылы янгыр.wav" WAVE
TRACK 06 AUDIO
TITLE "Жэйге жылы янгыр"
PERFORMER "Эмиль Айзатулла"
REM COMPOSER ""
FLAGS DCP
INDEX 01 00:00:00
FILE "07. Румия Фэтхетдинова - Сагынам сине.wav" WAVE
TRACK 07 AUDIO
TITLE "Сагынам сине"
PERFORMER "Румия Фэтхетдинова"
REM COMPOSER ""
FLAGS DCP
INDEX 01 00:00:00
FILE "08. Булат Жиhаншин - Синсез.wav" WAVE
TRACK 08 AUDIO
TITLE "Синсез"
PERFORMER "Булат Жиhаншин"
REM COMPOSER ""
FLAGS DCP
INDEX 01 00:00:00
FILE "09. Дилэ Нигъмэтуллина - Хатын-кыз бэхете (ремикс).wav" WAVE
TRACK 09 AUDIO
TITLE "Хатын-кыз бэхете (ремикс)"
PERFORMER "Дилэ Нигъмэтуллина"
REM COMPOSER ""
FLAGS DCP
INDEX 01 00:00:00
FILE "10. Илнур-Айрат - Йорэгемне ал кулларына.wav" WAVE
TRACK 10 AUDIO
TITLE "Йорэгемне ал кулларына"
PERFORMER "Илнур-Айрат"
REM COMPOSER ""
FLAGS DCP
INDEX 01 00:00:00
FILE "11. Гузэл Уразова - Син житмисен жанга (ремикс).wav" WAVE
TRACK 11 AUDIO
TITLE "Син житмисен жанга (ремикс)"
PERFORMER "Гузэл Уразова"
REM COMPOSER ""
FLAGS DCP
INDEX 01 00:00:00
FILE "12. Салават Миннеханов - Дингез ярында (ремикс).wav" WAVE
TRACK 12 AUDIO
TITLE "Дингез ярында (ремикс)"
PERFORMER "Салават Миннеханов"
REM COMPOSER ""
FLAGS DCP
INDEX 01 00:00:00
FILE "13. Эльнара Нурмохэммэтова - Без ике фэрештэ.wav" WAVE
TRACK 13 AUDIO
TITLE "Без ике фэрештэ"
PERFORMER "Эльнара Нурмохэммэтова"
REM COMPOSER ""
FLAGS DCP
INDEX 01 00:00:00
FILE "14. Айфара - Омет.wav" WAVE
TRACK 14 AUDIO
TITLE "Омет"
PERFORMER "Айфара"
REM COMPOSER ""
FLAGS DCP
INDEX 01 00:00:00
FILE "15. Альбина hэм Шакур - Конлэшу.wav" WAVE
TRACK 15 AUDIO
TITLE "Конлэшу"
PERFORMER "Альбина hэм Шакур"
REM COMPOSER ""
FLAGS DCP
INDEX 01 00:00:00
FILE "16. Фэрит Таишев - Бер сэбэп.wav" WAVE
TRACK 16 AUDIO
TITLE "Бер сэбэп"
PERFORMER "Фэрит Таишев"
REM COMPOSER ""
FLAGS DCP
INDEX 01 00:00:00
FILE "17. Азалия - Кошлар (ремикс).wav" WAVE
TRACK 17 AUDIO
TITLE "Кошлар (ремикс)"
PERFORMER "Азалия"
REM COMPOSER ""
FLAGS DCP
INDEX 01 00:00:00
FILE "18. Добер-Шатр - Кар кызы.wav" WAVE
TRACK 18 AUDIO
TITLE "Кар кызы"
PERFORMER "Добер-Шатр"
REM COMPOSER ""
FLAGS DCP
INDEX 01 00:00:00
FILE "19. Илназ Сафиуллин - Юллар.wav" WAVE
TRACK 19 AUDIO
TITLE "Юллар"
PERFORMER "Илназ Сафиуллин"
REM COMPOSER ""
FLAGS DCP
INDEX 01 00:00:00
FILE "20. Иркэ - Хэллэремне сорама (ремикс).wav" WAVE
TRACK 20 AUDIO
TITLE "Хэллэремне сорама (ремикс)"
PERFORMER "Иркэ"
REM COMPOSER ""
FLAGS DCP
INDEX 01 00:00:00
FILE "21. Эссе - Тамчы.wav" WAVE
TRACK 21 AUDIO
TITLE "Тамчы"
PERFORMER "Эссе"
REM COMPOSER ""
FLAGS DCP
INDEX 01 00:00:00
FILE "22. Ландыш Нигъмэтжанова - Кайда син.wav" WAVE
TRACK 22 AUDIO
TITLE "Кайда син?"
PERFORMER "Ландыш Нигъмэтжанова"
REM COMPOSER ""
FLAGS DCP
INDEX 01 00:00:00
Rafail(Rafail.AS)
Пользователь
Пользователь
 
Раздал: 125.71 ГБ
Скачал: 106.37 ГБ
Ратио: 1.182
Сообщения: 219
Зарегистрирован: 31 июл 2017, 12:18
  • Торрент
Автор: Rafail(Rafail.AS) Хэш: ---
Добавлен: 04 май 2019, 08:59 Приватный: Нет (DHT включён)
Статус: Проверен
Размер: 691.63 МБ (725 229 920 байт)
Изменил: Leopold49 (05 май 2019, 11:42)
Скачали: 8 (Раздающих: 0%)
Причина:
---
Здоровье: 0%
Сидеров: 0 Личеров: 0
Скорость раздачи: 0 байт/сек Скорость скачивания: 0 байт/сек
Последний сидер: 1 год 14 дней 9 часов 31 минуту 32 секунды назад Последний личер: 3 дня 17 часов 25 минут 34 секунды назад
Для скачивания торрента необходимо зарегистрироваться или войти на трекер.

  • Похожие торренты
    Ответы
    Просмотры
    Последнее сообщение

Вернуться в Аудио



Кто сейчас на конференции

Сейчас этот форум просматривают: нет зарегистрированных пользователей и гости: 2

Ресурс не предоставляет электронные версии произведений, а занимается лишь коллекционированием и каталогизацией ссылок, присылаемых и публикуемых на форуме нашими читателями. Если вы являетесь правообладателем какого-либо представленного материала и не желаете чтобы ссылка на него находилась в нашем каталоге, свяжитесь с нами и мы незамедлительно удалим её. Файлы для обмена на трекере предоставлены пользователями сайта, и администрация не несёт ответственности за их содержание. Просьба не заливать файлы, защищенные авторскими правами, а также файлы нелегального содержания!
cron