(Pop, Татарская эстрада) [CD] VA - Хит парад 5 - 2004, FLAC (tracks+.cue), lossless

(Pop, Татарская эстрада) [CD] VA - Хит парад 5 - 2004, FLAC (tracks+.cue), lossless

Сообщение Rafail(Rafail.AS) » 04 май 2019, 08:33

  • Постеры
Жанр: Pop, Татарская эстрада
Носитель: CD
Страна-производитель диска (релиза): Россия, Татарстан
Год издания: 2004
Издатель (лейбл): Барс Рекордс
Номер по каталогу: TRCD2004-1
Аудиокодек: FLAC (*.flac)
Тип рипа: tracks+.cue
Битрейт аудио: lossless
Продолжительность: 00:45:32
Источник: собственный рип
Наличие сканов в содержимом раздачи: да

01. Элфинэ Эзhэмова - Тонге урам
02. Нэфкать Нигъмэтуллин - Тик сина
03. Гузэл Уразова - Жырларымны сина багышлыйм
04. Айфара - Егет тэкъдиме
05. Голнара Исмаева - Син минем бердэнбер
06. Фэрит Таишев - Ялгыз каен
07. Нурэхмэт Мохэммэтжан - Эх, алмагачлары
08. И. Сэйфиев - Эрет мине
09. Зэйнэп Фэрхетдинова - Булмый яшэп ярсыз
10. Хомай - Сунгэн сою
11. Лэйсэн Гимаева - Балачак сукмагы
12. Зофэр Хэйретдинов - Мин бэхетле син булганда
Exact Audio Copy V1.3 from 2. September 2016

Отчёт EAC об извлечении, выполненном 1. мая 2019, 11:51

Various Artists / Хит парад 5

Дисковод: ASUS DRW-24B5ST Adapter: 1 ID: 0

Режим чтения : Достоверность
Использование точного потока : Да
Отключение кэша аудио : Да
Использование указателей C2 : Нет

Коррекция смещения при чтении : 6
Способность читать области Lead-in и Lead-out : Нет
Заполнение пропущенных сэмплов тишиной : Да
Удаление блоков с тишиной в начале и конце : Нет
При вычислениях CRC использовались нулевые сэмплы : Да
Интерфейс : Встроенный Win32-интерфейс для Win NT/2000
Обработка зазоров : Добавлено к предыдущему треку

Выходной формат : Пользовательский кодировщик
Выбранный битрейт : 128 kBit/s
Качество : Высокий
Добавление ID3-тега : Нет
Утилита сжатия : C:\Program Files (x86)\Exact Audio Copy\Flac\flac.exe
Дополнительные параметры : -V -8 -T "Genre=%genre%" -T "Artist=%artist%" -T "Title=%title%" -T "Album=%albumtitle%" -T "Date=%year%" -T "Tracknumber=%tracknr%" -T "Comment=%comment%" %source%

TOC извлечённого CD

Трек | Старт | Длительность | Начальный сектор | Конечный сектор
---------------------------------------------------------------------
1 | 0:00.00 | 3:58.66 | 0 | 17915
2 | 3:58.66 | 3:44.09 | 17916 | 34724
3 | 7:43.00 | 4:03.47 | 34725 | 52996
4 | 11:46.47 | 4:24.19 | 52997 | 72815
5 | 16:10.66 | 4:19.61 | 72816 | 92301
6 | 20:30.52 | 3:01.36 | 92302 | 105912
7 | 23:32.13 | 3:10.53 | 105913 | 120215
8 | 26:42.66 | 2:19.55 | 120216 | 130695
9 | 29:02.46 | 4:54.55 | 130696 | 152800
10 | 33:57.26 | 3:59.72 | 152801 | 170797
11 | 37:57.23 | 3:20.61 | 170798 | 185858
12 | 41:18.09 | 4:14.25 | 185859 | 204933

Трек 1

Имя файла C:\VA - Хит парад 5 (2004) [FLAC]\01. Элфинэ Эзhэмова - Тонге урам.wav

Длина предзазора 0:00:02.00

Пиковый уровень 54.3 %
Скорость извлечения 4.9 X
Качество трека 100.0 %
CRC теста 52CF8590
CRC копии 52CF8590
Трек не обнаружен в базе AccurateRip
Копирование... OK

Трек 2

Имя файла C:\VA - Хит парад 5 (2004) [FLAC]\02. Нэфкать Нигъмэтуллин - Тик сина.wav

Длина предзазора 0:00:02.00

Пиковый уровень 97.1 %
Скорость извлечения 4.8 X
Качество трека 99.9 %
CRC теста F201C1D8
CRC копии F201C1D8
Трек не обнаружен в базе AccurateRip
Копирование... OK

Трек 3

Имя файла C:\VA - Хит парад 5 (2004) [FLAC]\03. Гузэл Уразова - Жырларымны сина багышлыйм.wav

Длина предзазора 0:00:02.00

Пиковый уровень 98.9 %
Скорость извлечения 6.0 X
Качество трека 100.0 %
CRC теста 89A64AF3
CRC копии 89A64AF3
Трек не обнаружен в базе AccurateRip
Копирование... OK

Трек 4

Имя файла C:\VA - Хит парад 5 (2004) [FLAC]\04. Айфара - Егет тэкъдиме.wav

Длина предзазора 0:00:02.00

Пиковый уровень 100.0 %
Скорость извлечения 5.9 X
Качество трека 99.9 %
CRC теста A68BD536
CRC копии A68BD536
Трек не обнаружен в базе AccurateRip
Копирование... OK

Трек 5

Имя файла C:\VA - Хит парад 5 (2004) [FLAC]\05. Голнара Исмаева - Син минем бердэнбер.wav

Длина предзазора 0:00:02.00

Пиковый уровень 100.0 %
Скорость извлечения 7.0 X
Качество трека 100.0 %
CRC теста 0968B84D
CRC копии 0968B84D
Трек не обнаружен в базе AccurateRip
Копирование... OK

Трек 6

Имя файла C:\VA - Хит парад 5 (2004) [FLAC]\06. Фэрит Таишев - Ялгыз каен.wav

Длина предзазора 0:00:02.00

Пиковый уровень 100.0 %
Скорость извлечения 7.0 X
Качество трека 100.0 %
CRC теста DA64AAA5
CRC копии DA64AAA5
Трек не обнаружен в базе AccurateRip
Копирование... OK

Трек 7

Имя файла C:\VA - Хит парад 5 (2004) [FLAC]\07. Нурэхмэт Мохэммэтжан - Эх, алмагачлары.wav

Длина предзазора 0:00:02.00

Пиковый уровень 99.5 %
Скорость извлечения 7.4 X
Качество трека 100.0 %
CRC теста AB8F880C
CRC копии AB8F880C
Трек не обнаружен в базе AccurateRip
Копирование... OK

Трек 8

Имя файла C:\VA - Хит парад 5 (2004) [FLAC]\08. И. Сэйфиев - Эрет мине.wav

Длина предзазора 0:00:02.00

Пиковый уровень 99.7 %
Скорость извлечения 7.2 X
Качество трека 100.0 %
CRC теста CFD590F3
CRC копии CFD590F3
Трек не обнаружен в базе AccurateRip
Копирование... OK

Трек 9

Имя файла C:\VA - Хит парад 5 (2004) [FLAC]\09. Зэйнэп Фэрхетдинова - Булмый яшэп ярсыз.wav

Длина предзазора 0:00:02.00

Пиковый уровень 98.7 %
Скорость извлечения 8.4 X
Качество трека 100.0 %
CRC теста DDC43648
CRC копии DDC43648
Трек не обнаружен в базе AccurateRip
Копирование... OK

Трек 10

Имя файла C:\VA - Хит парад 5 (2004) [FLAC]\10. Хомай - Сунгэн сою.wav

Длина предзазора 0:00:02.00

Пиковый уровень 100.0 %
Скорость извлечения 8.5 X
Качество трека 100.0 %
CRC теста A00176F6
CRC копии A00176F6
Трек не обнаружен в базе AccurateRip
Копирование... OK

Трек 11

Имя файла C:\VA - Хит парад 5 (2004) [FLAC]\11. Лэйсэн Гимаева - Балачак сукмагы.wav

Длина предзазора 0:00:02.00

Пиковый уровень 92.3 %
Скорость извлечения 7.4 X
Качество трека 99.9 %
CRC теста 8657B7B0
CRC копии 8657B7B0
Трек не обнаружен в базе AccurateRip
Копирование... OK

Трек 12

Имя файла C:\VA - Хит парад 5 (2004) [FLAC]\12. Зофэр Хэйретдинов - Мин бэхетле син булганда.wav

Длина предзазора 0:00:02.00

Пиковый уровень 98.4 %
Скорость извлечения 8.1 X
Качество трека 99.9 %
CRC теста 4FEB144C
CRC копии 4FEB144C
Трек не обнаружен в базе AccurateRip
Копирование... OK

Ни одного трека нет в базе AccurateRip

Ошибок не произошло

Конец отчёта

==== Контрольная сумма отчёта 4D8B87C8B616C7F6F4A9523FF697A15BA7DE4FAC3343C9E8D7E1D23BAF789FE7 ====
REM DATE 2004
REM DISCID 950AAC0C
REM COMMENT "ExactAudioCopy v1.3"
PERFORMER "Various Artists"
TITLE "Хит парад 5"
REM COMPOSER ""
FILE "01. Элфинэ Эзhэмова - Тонге урам.wav" WAVE
TRACK 01 AUDIO
TITLE "Тонге урам"
PERFORMER "Элфинэ Эзhэмова"
REM COMPOSER ""
INDEX 01 00:00:00
TRACK 02 AUDIO
TITLE "Тик сина"
PERFORMER "Нэфкать Нигъмэтуллин"
REM COMPOSER ""
INDEX 00 03:56:66
FILE "02. Нэфкать Нигъмэтуллин - Тик сина.wav" WAVE
INDEX 01 00:00:00
TRACK 03 AUDIO
TITLE "Жырларымны сина багышлыйм"
PERFORMER "Гузэл Уразова"
REM COMPOSER ""
INDEX 00 03:42:09
FILE "03. Гузэл Уразова - Жырларымны сина багышлыйм.wav" WAVE
INDEX 01 00:00:00
TRACK 04 AUDIO
TITLE "Егет тэкъдиме"
PERFORMER "Айфара"
REM COMPOSER ""
INDEX 00 04:01:47
FILE "04. Айфара - Егет тэкъдиме.wav" WAVE
INDEX 01 00:00:00
TRACK 05 AUDIO
TITLE "Син минем бердэнбер"
PERFORMER "Голнара Исмаева"
REM COMPOSER ""
INDEX 00 04:22:19
FILE "05. Голнара Исмаева - Син минем бердэнбер.wav" WAVE
INDEX 01 00:00:00
TRACK 06 AUDIO
TITLE "Ялгыз каен"
PERFORMER "Фэрит Таишев"
REM COMPOSER ""
INDEX 00 04:17:61
FILE "06. Фэрит Таишев - Ялгыз каен.wav" WAVE
INDEX 01 00:00:00
TRACK 07 AUDIO
TITLE "Эх, алмагачлары"
PERFORMER "Нурэхмэт Мохэммэтжан"
REM COMPOSER ""
INDEX 00 02:59:36
FILE "07. Нурэхмэт Мохэммэтжан - Эх, алмагачлары.wav" WAVE
INDEX 01 00:00:00
TRACK 08 AUDIO
TITLE "Эрет мине"
PERFORMER "И. Сэйфиев"
REM COMPOSER ""
INDEX 00 03:08:53
FILE "08. И. Сэйфиев - Эрет мине.wav" WAVE
INDEX 01 00:00:00
TRACK 09 AUDIO
TITLE "Булмый яшэп ярсыз"
PERFORMER "Зэйнэп Фэрхетдинова"
REM COMPOSER ""
INDEX 00 02:17:55
FILE "09. Зэйнэп Фэрхетдинова - Булмый яшэп ярсыз.wav" WAVE
INDEX 01 00:00:00
TRACK 10 AUDIO
TITLE "Сунгэн сою"
PERFORMER "Хомай"
REM COMPOSER ""
INDEX 00 04:52:55
FILE "10. Хомай - Сунгэн сою.wav" WAVE
INDEX 01 00:00:00
TRACK 11 AUDIO
TITLE "Балачак сукмагы"
PERFORMER "Лэйсэн Гимаева"
REM COMPOSER ""
INDEX 00 03:57:72
FILE "11. Лэйсэн Гимаева - Балачак сукмагы.wav" WAVE
INDEX 01 00:00:00
TRACK 12 AUDIO
TITLE "Мин бэхетле син булганда"
PERFORMER "Зофэр Хэйретдинов"
REM COMPOSER ""
INDEX 00 03:18:61
FILE "12. Зофэр Хэйретдинов - Мин бэхетле син булганда.wav" WAVE
INDEX 01 00:00:00
Последний раз редактировалось Rafail(Rafail.AS) 06 май 2019, 07:30, всего редактировалось 1 раз.
Rafail(Rafail.AS)
Пользователь
Пользователь
 
Раздал: 118.12 ГБ
Скачал: 102.21 ГБ
Ратио: 1.156
Сообщения: 219
Зарегистрирован: 31 июл 2017, 12:18
  • Торрент
Автор: Rafail(Rafail.AS) Хэш: ---
Добавлен: 04 май 2019, 08:32 Приватный: Нет (DHT включён)
Статус: Проверен
Размер: 430.12 МБ (451 011 159 байт)
Изменил: Leopold49 (05 май 2019, 11:42)
Скачали: 8 (Раздающих: 0%)
Причина:
---
Здоровье: 100%
Сидеров: 1 Личеров: 0
Скорость раздачи: 0 байт/сек Скорость скачивания: 0 байт/сек
Последний сидер: 1 час 7 минут 56 секунд назад Последний личер: 3 дня 15 часов 39 минут 38 секунд назад
Для скачивания торрента необходимо зарегистрироваться или войти на трекер.

Re: (Pop, Татарская эстрада) [CD] VA - Хит парад 5 - 2004, FLAC (tracks+.cue), lossless

Сообщение Leopold49 » 05 май 2019, 12:25

Забыл птичку поставить на постер. ;)
Аватара пользователя
Leopold49
 
Раздал: 3.17 ТБ
Скачал: 45.58 ГБ
Ратио: 71.125
Сообщения: 1035
Зарегистрирован: 28 дек 2011, 09:02
Откуда: Tomsk

Re: (Pop, Татарская эстрада) [CD] VA - Хит парад 5 - 2004, FLAC (tracks+.cue), lossless

Сообщение Rafail(Rafail.AS) » 06 май 2019, 07:32

Спасибо!!!
Постер перезалил, галочку поставил...!
Rafail(Rafail.AS)
Пользователь
Пользователь
 
Раздал: 118.12 ГБ
Скачал: 102.21 ГБ
Ратио: 1.156
Сообщения: 219
Зарегистрирован: 31 июл 2017, 12:18

Re: (Pop, Татарская эстрада) [CD] VA - Хит парад 5 - 2004, FLAC (tracks+.cue), lossless

Сообщение RamaiL » 28 авг 2021, 09:37

Rafail(Rafail.AS) писал(а):Re: (Pop, Татарская эстрада) [CD] VA - Хит парад 5 - 2004, FLAC (tracks+.cue), lossless


ВСТАНЬТЕ НА РАЗДАЧУ ПОЖАЛУЙСТА?!!
Аватара пользователя
RamaiL
Пользователь
Пользователь
 
Раздал: 13.18 ГБ
Скачал: 6.42 ГБ
Ратио: 2.053
Сообщения: 11
Зарегистрирован: 10 июн 2017, 21:11


  • Похожие торренты
    Ответы
    Просмотры
    Последнее сообщение

Вернуться в Аудио



Кто сейчас на конференции

Сейчас этот форум просматривают: нет зарегистрированных пользователей и гости: 6

Ресурс не предоставляет электронные версии произведений, а занимается лишь коллекционированием и каталогизацией ссылок, присылаемых и публикуемых на форуме нашими читателями. Если вы являетесь правообладателем какого-либо представленного материала и не желаете чтобы ссылка на него находилась в нашем каталоге, свяжитесь с нами и мы незамедлительно удалим её. Файлы для обмена на трекере предоставлены пользователями сайта, и администрация не несёт ответственности за их содержание. Просьба не заливать файлы, защищенные авторскими правами, а также файлы нелегального содержания!
cron