(Pop, Татарская эстрада) [CD] VA - Музыкаль хэрэкэт - 2007, FLAC (tracks+.cue), lossless

(Pop, Татарская эстрада) [CD] VA - Музыкаль хэрэкэт - 2007, FLAC (tracks+.cue), lossless

Сообщение Rafail(Rafail.AS) » 04 май 2019, 07:45

  • Постеры
Жанр: Pop, Татарская эстрада
Носитель: CD
Страна-производитель диска (релиза): Россия, Татарстан
Год издания: 2007
Издатель (лейбл): Оскар Рекордс
Номер по каталогу: ORCD 07-084
Аудиокодек: FLAC (*.flac)
Тип рипа: tracks+.cue
Битрейт аудио: lossless
Продолжительность: 01:11:38
Источник: собственный рип
Наличие сканов в содержимом раздачи: да

01. Радик Юлъяшкин - Диско
02. Трио ЭГА - Яшермэ кузлэренне
03. ITTIFAQ - Бэлки
04. Энисэ - Син анламадын
05. Илсур Мостафин - Мин гармунчы
06. Зо-Лэй-Лэ - Бэйлим-сутэм
07. ИлГэрэй - Жилэкле иреннэр
08. Алимэ - Сойлэ серенне
09. Добер-Шатр - Яратам бит
10. Рузалия апа & DJ Rabbah - Борлегэн
11. Марсел Вэгыйзов - Я, Ходаем, саулык сорыйм синнэн
12. Альбина Апанаева - Кыр казлары киткэн кебек
13. Эхмэтжан Торсынтай - Цыганочка
14. Айсылу - Сине назлап
15. Исхак-Хан - Дискотека дэресе
16. Тамчыгол - Ап-ак ромашкалы матур алан
17. Чэчкэ - Опа-опа
18. Илсоя Бэдретдинова - Тукта, елама
Exact Audio Copy V1.3 from 2. September 2016

Отчёт EAC об извлечении, выполненном 2. мая 2019, 9:52

Various Artists / Музыкаль хэрэкэт

Дисковод: ASUS DRW-24B5ST Adapter: 1 ID: 0

Режим чтения : Достоверность
Использование точного потока : Да
Отключение кэша аудио : Да
Использование указателей C2 : Нет

Коррекция смещения при чтении : 6
Способность читать области Lead-in и Lead-out : Нет
Заполнение пропущенных сэмплов тишиной : Да
Удаление блоков с тишиной в начале и конце : Нет
При вычислениях CRC использовались нулевые сэмплы : Да
Интерфейс : Встроенный Win32-интерфейс для Win NT/2000
Обработка зазоров : Добавлено к предыдущему треку

Выходной формат : Пользовательский кодировщик
Выбранный битрейт : 128 kBit/s
Качество : Высокий
Добавление ID3-тега : Нет
Утилита сжатия : C:\Program Files (x86)\Exact Audio Copy\Flac\flac.exe
Дополнительные параметры : -V -8 -T "Genre=%genre%" -T "Artist=%artist%" -T "Title=%title%" -T "Album=%albumtitle%" -T "Date=%year%" -T "Tracknumber=%tracknr%" -T "Comment=%comment%" %source%

TOC извлечённого CD

Трек | Старт | Длительность | Начальный сектор | Конечный сектор
---------------------------------------------------------------------
1 | 0:00.00 | 3:47.10 | 0 | 17034
2 | 3:47.10 | 2:57.26 | 17035 | 30335
3 | 6:44.36 | 2:42.33 | 30336 | 42518
4 | 9:26.69 | 3:44.34 | 42519 | 59352
5 | 13:11.28 | 4:59.50 | 59353 | 81827
6 | 18:11.03 | 4:07.66 | 81828 | 100418
7 | 22:18.69 | 3:48.38 | 100419 | 117556
8 | 26:07.32 | 4:23.23 | 117557 | 137304
9 | 30:30.55 | 3:43.15 | 137305 | 154044
10 | 34:13.70 | 2:55.05 | 154045 | 167174
11 | 37:09.00 | 5:12.65 | 167175 | 190639
12 | 42:21.65 | 3:45.41 | 190640 | 207555
13 | 46:07.31 | 4:17.32 | 207556 | 226862
14 | 50:24.63 | 4:20.43 | 226863 | 246405
15 | 54:45.31 | 5:11.04 | 246406 | 269734
16 | 59:56.35 | 3:16.22 | 269735 | 284456
17 | 63:12.57 | 3:47.52 | 284457 | 301533
18 | 67:00.34 | 4:38.08 | 301534 | 322391

Трек 1

Имя файла C:\VA - Музыкаль хэрэкэт (2007) [FLAC]\01. Радик Юлъяшкин - Диско.wav

Длина предзазора 0:00:02.00

Пиковый уровень 97.6 %
Скорость извлечения 5.3 X
Качество трека 100.0 %
CRC теста 7BA58563
CRC копии 7BA58563
Трек не обнаружен в базе AccurateRip
Копирование... OK

Трек 2

Имя файла C:\VA - Музыкаль хэрэкэт (2007) [FLAC]\02. Трио ЭГА - Яшермэ кузлэренне.wav

Пиковый уровень 97.3 %
Скорость извлечения 5.5 X
Качество трека 100.0 %
CRC теста 24DC07BD
CRC копии 24DC07BD
Трек не обнаружен в базе AccurateRip
Копирование... OK

Трек 3

Имя файла C:\VA - Музыкаль хэрэкэт (2007) [FLAC]\03. ITTIFAQ - Бэлки.wav

Пиковый уровень 97.7 %
Скорость извлечения 5.7 X
Качество трека 100.0 %
CRC теста 3A8B0141
CRC копии 3A8B0141
Трек не обнаружен в базе AccurateRip
Копирование... OK

Трек 4

Имя файла C:\VA - Музыкаль хэрэкэт (2007) [FLAC]\04. Энисэ - Син анламадын.wav

Пиковый уровень 99.8 %
Скорость извлечения 5.6 X
Качество трека 99.9 %
CRC теста F3CAD19B
CRC копии F3CAD19B
Трек не обнаружен в базе AccurateRip
Копирование... OK

Трек 5

Имя файла C:\VA - Музыкаль хэрэкэт (2007) [FLAC]\05. Илсур Мостафин - Мин гармунчы.wav

Пиковый уровень 99.9 %
Скорость извлечения 7.1 X
Качество трека 100.0 %
CRC теста D50D8005
CRC копии D50D8005
Трек не обнаружен в базе AccurateRip
Копирование... OK

Трек 6

Имя файла C:\VA - Музыкаль хэрэкэт (2007) [FLAC]\06. Зо-Лэй-Лэ - Бэйлим-сутэм.wav

Пиковый уровень 97.6 %
Скорость извлечения 7.4 X
Качество трека 100.0 %
CRC теста 5FAE225F
CRC копии 5FAE225F
Трек не обнаружен в базе AccurateRip
Копирование... OK

Трек 7

Имя файла C:\VA - Музыкаль хэрэкэт (2007) [FLAC]\07. ИлГэрэй - Жилэкле иреннэр.wav

Пиковый уровень 97.7 %
Скорость извлечения 7.7 X
Качество трека 100.0 %
CRC теста 5CFA3D58
CRC копии 5CFA3D58
Трек не обнаружен в базе AccurateRip
Копирование... OK

Трек 8

Имя файла C:\VA - Музыкаль хэрэкэт (2007) [FLAC]\08. Алимэ - Сойлэ серенне.wav

Пиковый уровень 97.2 %
Скорость извлечения 8.1 X
Качество трека 100.0 %
CRC теста C6580784
CRC копии C6580784
Трек не обнаружен в базе AccurateRip
Копирование... OK

Трек 9

Имя файла C:\VA - Музыкаль хэрэкэт (2007) [FLAC]\09. Добер-Шатр - Яратам бит.wav

Пиковый уровень 97.6 %
Скорость извлечения 8.3 X
Качество трека 100.0 %
CRC теста 0B1CB55B
CRC копии 0B1CB55B
Трек не обнаружен в базе AccurateRip
Копирование... OK

Трек 10

Имя файла C:\VA - Музыкаль хэрэкэт (2007) [FLAC]\10. Рузалия апа & DJ Rabbah - Борлегэн.wav

Пиковый уровень 97.5 %
Скорость извлечения 8.2 X
Качество трека 100.0 %
CRC теста 4406957E
CRC копии 4406957E
Трек не обнаружен в базе AccurateRip
Копирование... OK

Трек 11

Имя файла C:\VA - Музыкаль хэрэкэт (2007) [FLAC]\11. Марсел Вэгыйзов - Я, Ходаем, саулык сорыйм синнэн.wav

Пиковый уровень 99.9 %
Скорость извлечения 9.2 X
Качество трека 100.0 %
CRC теста 7A236C36
CRC копии 7A236C36
Трек не обнаружен в базе AccurateRip
Копирование... OK

Трек 12

Имя файла C:\VA - Музыкаль хэрэкэт (2007) [FLAC]\12. Альбина Апанаева - Кыр казлары киткэн кебек.wav

Пиковый уровень 99.7 %
Скорость извлечения 9.2 X
Качество трека 100.0 %
CRC теста 973B7DF8
CRC копии 973B7DF8
Трек не обнаружен в базе AccurateRip
Копирование... OK

Трек 13

Имя файла C:\VA - Музыкаль хэрэкэт (2007) [FLAC]\13. Эхмэтжан Торсынтай - Цыганочка.wav

Пиковый уровень 99.3 %
Скорость извлечения 9.7 X
Качество трека 100.0 %
CRC теста EA4078A1
CRC копии EA4078A1
Трек не обнаружен в базе AccurateRip
Копирование... OK

Трек 14

Имя файла C:\VA - Музыкаль хэрэкэт (2007) [FLAC]\14. Айсылу - Сине назлап.wav

Пиковый уровень 97.3 %
Скорость извлечения 8.8 X
Качество трека 99.9 %
CRC теста 641AD801
CRC копии 641AD801
Трек не обнаружен в базе AccurateRip
Копирование... OK

Трек 15

Имя файла C:\VA - Музыкаль хэрэкэт (2007) [FLAC]\15. Исхак-Хан - Дискотека дэресе.wav

Пиковый уровень 97.6 %
Скорость извлечения 9.5 X
Качество трека 99.9 %
CRC теста 2FE12E3F
CRC копии 2FE12E3F
Трек не обнаружен в базе AccurateRip
Копирование... OK

Трек 16

Имя файла C:\VA - Музыкаль хэрэкэт (2007) [FLAC]\16. Тамчыгол - Ап-ак ромашкалы матур алан.wav

Пиковый уровень 99.0 %
Скорость извлечения 10.1 X
Качество трека 100.0 %
CRC теста 6AEC266A
CRC копии 6AEC266A
Трек не обнаружен в базе AccurateRip
Копирование... OK

Трек 17

Имя файла C:\VA - Музыкаль хэрэкэт (2007) [FLAC]\17. Чэчкэ - Опа-опа.wav

Пиковый уровень 99.9 %
Скорость извлечения 10.6 X
Качество трека 100.0 %
CRC теста 66514D0C
CRC копии 66514D0C
Трек не обнаружен в базе AccurateRip
Копирование... OK

Трек 18

Имя файла C:\VA - Музыкаль хэрэкэт (2007) [FLAC]\18. Илсоя Бэдретдинова - Тукта, елама.wav

Пиковый уровень 97.6 %
Скорость извлечения 11.2 X
Качество трека 100.0 %
CRC теста C0025A9C
CRC копии C0025A9C
Трек не обнаружен в базе AccurateRip
Копирование... OK

Ни одного трека нет в базе AccurateRip

Ошибок не произошло

Конец отчёта

==== Контрольная сумма отчёта E0172B088F58B8F96561224E5426E7D2B07239CB23B5CD70CBD64301AFD1A909 ====
REM DATE 2007
REM DISCID 0910CA12
REM COMMENT "ExactAudioCopy v1.3"
PERFORMER "Various Artists"
TITLE "Музыкаль хэрэкэт"
REM COMPOSER ""
FILE "01. Радик Юлъяшкин - Диско.wav" WAVE
TRACK 01 AUDIO
TITLE "Диско"
PERFORMER "Радик Юлъяшкин"
REM COMPOSER ""
FLAGS DCP
INDEX 01 00:00:00
FILE "02. Трио ЭГА - Яшермэ кузлэренне.wav" WAVE
TRACK 02 AUDIO
TITLE "Яшермэ кузлэренне"
PERFORMER "Трио ЭГА"
REM COMPOSER ""
FLAGS DCP
INDEX 01 00:00:00
FILE "03. ITTIFAQ - Бэлки.wav" WAVE
TRACK 03 AUDIO
TITLE "Бэлки"
PERFORMER "ITTIFAQ"
REM COMPOSER ""
FLAGS DCP
INDEX 01 00:00:00
FILE "04. Энисэ - Син анламадын.wav" WAVE
TRACK 04 AUDIO
TITLE "Син анламадын"
PERFORMER "Энисэ"
REM COMPOSER ""
FLAGS DCP
INDEX 01 00:00:00
FILE "05. Илсур Мостафин - Мин гармунчы.wav" WAVE
TRACK 05 AUDIO
TITLE "Мин гармунчы"
PERFORMER "Илсур Мостафин"
REM COMPOSER ""
FLAGS DCP
INDEX 01 00:00:00
FILE "06. Зо-Лэй-Лэ - Бэйлим-сутэм.wav" WAVE
TRACK 06 AUDIO
TITLE "Бэйлим-сутэм"
PERFORMER "Зо-Лэй-Лэ"
REM COMPOSER ""
FLAGS DCP
INDEX 01 00:00:00
FILE "07. ИлГэрэй - Жилэкле иреннэр.wav" WAVE
TRACK 07 AUDIO
TITLE "Жилэкле иреннэр"
PERFORMER "ИлГэрэй"
REM COMPOSER ""
FLAGS DCP
INDEX 01 00:00:00
FILE "08. Алимэ - Сойлэ серенне.wav" WAVE
TRACK 08 AUDIO
TITLE "Сойлэ серенне"
PERFORMER "Алимэ"
REM COMPOSER ""
FLAGS DCP
INDEX 01 00:00:00
FILE "09. Добер-Шатр - Яратам бит.wav" WAVE
TRACK 09 AUDIO
TITLE "Яратам бит"
PERFORMER "Добер-Шатр"
REM COMPOSER ""
FLAGS DCP
INDEX 01 00:00:00
FILE "10. Рузалия апа & DJ Rabbah - Борлегэн.wav" WAVE
TRACK 10 AUDIO
TITLE "Борлегэн"
PERFORMER "Рузалия апа & DJ Rabbah"
REM COMPOSER ""
FLAGS DCP
INDEX 01 00:00:00
FILE "11. Марсел Вэгыйзов - Я, Ходаем, саулык сорыйм синнэн.wav" WAVE
TRACK 11 AUDIO
TITLE "Я, Ходаем, саулык сорыйм синнэн"
PERFORMER "Марсел Вэгыйзов"
REM COMPOSER ""
FLAGS DCP
INDEX 01 00:00:00
FILE "12. Альбина Апанаева - Кыр казлары киткэн кебек.wav" WAVE
TRACK 12 AUDIO
TITLE "Кыр казлары киткэн кебек"
PERFORMER "Альбина Апанаева"
REM COMPOSER ""
FLAGS DCP
INDEX 01 00:00:00
FILE "13. Эхмэтжан Торсынтай - Цыганочка.wav" WAVE
TRACK 13 AUDIO
TITLE "Цыганочка"
PERFORMER "Эхмэтжан Торсынтай"
REM COMPOSER ""
FLAGS DCP
INDEX 01 00:00:00
FILE "14. Айсылу - Сине назлап.wav" WAVE
TRACK 14 AUDIO
TITLE "Сине назлап"
PERFORMER "Айсылу"
REM COMPOSER ""
FLAGS DCP
INDEX 01 00:00:00
FILE "15. Исхак-Хан - Дискотека дэресе.wav" WAVE
TRACK 15 AUDIO
TITLE "Дискотека дэресе"
PERFORMER "Исхак-Хан"
REM COMPOSER ""
FLAGS DCP
INDEX 01 00:00:00
FILE "16. Тамчыгол - Ап-ак ромашкалы матур алан.wav" WAVE
TRACK 16 AUDIO
TITLE "Ап-ак ромашкалы матур алан"
PERFORMER "Тамчыгол"
REM COMPOSER ""
FLAGS DCP
INDEX 01 00:00:00
FILE "17. Чэчкэ - Опа-опа.wav" WAVE
TRACK 17 AUDIO
TITLE "Опа-опа"
PERFORMER "Чэчкэ"
REM COMPOSER ""
FLAGS DCP
INDEX 01 00:00:00
FILE "18. Илсоя Бэдретдинова - Тукта, елама.wav" WAVE
TRACK 18 AUDIO
TITLE "Тукта, елама"
PERFORMER "Илсоя Бэдретдинова"
REM COMPOSER ""
FLAGS DCP
INDEX 01 00:00:00
Rafail(Rafail.AS)
Пользователь
Пользователь
 
Раздал: 118.12 ГБ
Скачал: 102.21 ГБ
Ратио: 1.156
Сообщения: 219
Зарегистрирован: 31 июл 2017, 12:18
  • Торрент
Автор: Rafail(Rafail.AS) Хэш: ---
Добавлен: 04 май 2019, 07:44 Приватный: Нет (DHT включён)
Статус: Проверен
Размер: 604.2 МБ (633 545 611 байт)
Изменил: Leopold49 (05 май 2019, 11:41)
Скачали: 8 (Раздающих: 13%)
Причина:
---
Здоровье: 100%
Сидеров: 3 Личеров: 0
Скорость раздачи: 0 байт/сек Скорость скачивания: 0 байт/сек
Последний сидер: 6 минут 39 секунд назад Последний личер: 3 дня 20 часов 23 минуты 38 секунд назад
Для скачивания торрента необходимо зарегистрироваться или войти на трекер.

Re: (Pop, Татарская эстрада) [CD] VA - Музыкаль хэрэкэт - 2007, FLAC (tracks+.cue), lossless

Сообщение RamaiL » 28 авг 2021, 09:37

Rafail(Rafail.AS) писал(а):Re: (Pop, Татарская эстрада) [CD] VA - Музыкаль хэрэкэт - 2007, FLAC (tracks+.cue), lossless


ВСТАНЬТЕ НА РАЗДАЧУ ПОЖАЛУЙСТА?!!
Аватара пользователя
RamaiL
Пользователь
Пользователь
 
Раздал: 13.18 ГБ
Скачал: 6.42 ГБ
Ратио: 2.053
Сообщения: 11
Зарегистрирован: 10 июн 2017, 21:11


Вернуться в Аудио



Кто сейчас на конференции

Сейчас этот форум просматривают: нет зарегистрированных пользователей и гости: 2

cron
Ресурс не предоставляет электронные версии произведений, а занимается лишь коллекционированием и каталогизацией ссылок, присылаемых и публикуемых на форуме нашими читателями. Если вы являетесь правообладателем какого-либо представленного материала и не желаете чтобы ссылка на него находилась в нашем каталоге, свяжитесь с нами и мы незамедлительно удалим её. Файлы для обмена на трекере предоставлены пользователями сайта, и администрация не несёт ответственности за их содержание. Просьба не заливать файлы, защищенные авторскими правами, а также файлы нелегального содержания!
cron