(Pop, Татарская эстрада) [CD] VA - Жырлар Бяйляме 3 - 2005, FLAC (image+.cue), lossless

(Pop, Татарская эстрада) [CD] VA - Жырлар Бяйляме 3 - 2005, FLAC (image+.cue), lossless

Сообщение Rafail(Rafail.AS) » 27 апр 2019, 08:26

  • Постеры
Дата выхода: 2005
Альбом: Жырлар Бяйляме 3
Формат аудио: FLAC (*.flac)
Тип рипа: image+.cue
Язык: Татарский
Жанр: Pop, Татарская эстрада
Производитель диска: Россия / Казань
Носитель: CD
Состояние носителя: POOR
Битрэйт: lossless
Продолжительность: 01:16:22
Наличие сканов в содержимом раздачи: да

01. Гузел Уразова - Синен Серен - минем серем
02. Айдар Галимов - Синнян башка
03. Зяйняп Фэрхетдинова - Бер курещу узе бер гомер
04. Ирек Ногманов - Саллар ага
05. Чулпан Мортазина - Мин гаепле тугел
06. Фарид Таишев - Телефон дяшми
07. Гульнара Тимержанова - Коттермя
08. Казан Егетляре - Нигя яна йорягем
09. Лилияр - Салкын йоряк
10. Салават - Ярат мине
11. Зофяр Билялов - Акияттеге уги кызга
12. Лилия Хамитова - Анла шуны
13. Айфара - Сау бул, жяй
14. Лилия Муллагалиева - Жыр керсен кунелгя
15. Илнар Сайфиев - Сине курсям
16. ИлСаф - Игезякляр жыры
17. Резидя Шяряфиева - Чячлярендя ак тап
18. Идрис Газиев - Чячякляр тажыннан юрама
19. Няфкать Нигматуллин - Яратам
20. Хания Фярхи - Гомерлярне улмяс жыр итяек
Материал взят с сайта http://rutracker.org/forum/viewtopic.php?t=5010722
REM DISCID 1911E614
REM COMMENT "ExactAudioCopy v1.0b6"
PERFORMER "Various Artists"
TITLE "Жырлар Бяйляме 3"
FILE "Various Artists - Жырлар Бяйляме 3.flac" WAVE
TRACK 01 AUDIO
TITLE "Синен Серен - минем серем"
PERFORMER "Various Artists"
INDEX 01 00:00:00
TRACK 02 AUDIO
TITLE "Синнян башка"
PERFORMER "Various Artists"
INDEX 00 03:36:74
INDEX 01 03:38:74
TRACK 03 AUDIO
TITLE "Бер курещу узе бер гомер"
PERFORMER "Various Artists"
INDEX 00 07:10:09
INDEX 01 07:12:09
TRACK 04 AUDIO
TITLE "Саллар ага"
PERFORMER "Various Artists"
INDEX 00 09:48:20
INDEX 01 09:50:20
TRACK 05 AUDIO
TITLE "Мин гаепле тугел"
PERFORMER "Various Artists"
INDEX 00 13:59:14
INDEX 01 14:01:14
TRACK 06 AUDIO
TITLE "Телефон дяшми"
PERFORMER "Various Artists"
INDEX 00 17:11:07
INDEX 01 17:13:07
TRACK 07 AUDIO
TITLE "Коттермя"
PERFORMER "Various Artists"
INDEX 00 21:26:13
INDEX 01 21:28:13
TRACK 08 AUDIO
TITLE "Нигя яна йорягем"
PERFORMER "Various Artists"
INDEX 00 24:57:15
INDEX 01 24:59:15
TRACK 09 AUDIO
TITLE "Салкын йоряк"
PERFORMER "Various Artists"
INDEX 00 28:58:39
INDEX 01 29:00:39
TRACK 10 AUDIO
TITLE "Ярат мине"
PERFORMER "Various Artists"
INDEX 00 32:28:14
INDEX 01 32:30:14
TRACK 11 AUDIO
TITLE "Акияттеге уги кызга"
PERFORMER "Various Artists"
INDEX 00 35:57:59
INDEX 01 35:59:59
TRACK 12 AUDIO
TITLE "Анла шуны"
PERFORMER "Various Artists"
INDEX 00 39:13:47
INDEX 01 39:15:47
TRACK 13 AUDIO
TITLE "Сау бул, жяй"
PERFORMER "Various Artists"
INDEX 00 42:25:26
INDEX 01 42:27:26
TRACK 14 AUDIO
TITLE "Жыр керсен кунелгя"
PERFORMER "Various Artists"
INDEX 00 47:53:15
INDEX 01 47:55:15
TRACK 15 AUDIO
TITLE "Сине курсям"
PERFORMER "Various Artists"
INDEX 00 51:58:55
INDEX 01 52:00:55
TRACK 16 AUDIO
TITLE "Игезякляр жыры"
PERFORMER "Various Artists"
INDEX 00 55:33:63
INDEX 01 55:35:63
TRACK 17 AUDIO
TITLE "Чячлярендя ак тап"
PERFORMER "Various Artists"
INDEX 00 59:09:59
INDEX 01 59:11:59
TRACK 18 AUDIO
TITLE "Чячякляр тажыннан юрама"
PERFORMER "Various Artists"
INDEX 00 62:24:41
INDEX 01 62:26:41
TRACK 19 AUDIO
TITLE "Яратам"
PERFORMER "Various Artists"
INDEX 00 66:20:05
INDEX 01 66:22:05
TRACK 20 AUDIO
TITLE "Гомерлярне улмяс жыр итяек"
PERFORMER "Various Artists"
INDEX 00 70:24:17
INDEX 01 70:26:17
Exact Audio Copy V1.0 beta 6 from 9. April 2015

EAC extraction logfile from 22. May 2015, 17:54

Various Artists / Жырлар Бяйляме 3

Used drive : HL-DT-STDVDRAM GH24NSC0 Adapter: 1 ID: 0

Read mode : Secure
Utilize accurate stream : Yes
Defeat audio cache : Yes
Make use of C2 pointers : No

Read offset correction : 6
Overread into Lead-In and Lead-Out : No
Fill up missing offset samples with silence : Yes
Delete leading and trailing silent blocks : No
Null samples used in CRC calculations : Yes
Used interface : Native Win32 interface for Win NT & 2000

Used output format : Internal WAV Routines
Sample format : 44.100 Hz; 16 Bit; Stereo

TOC of the extracted CD

Track | Start | Length | Start sector | End sector
---------------------------------------------------------
1 | 0:00.00 | 3:38.74 | 0 | 16423
2 | 3:38.74 | 3:33.10 | 16424 | 32408
3 | 7:12.09 | 2:38.11 | 32409 | 44269
4 | 9:50.20 | 4:10.69 | 44270 | 63088
5 | 14:01.14 | 3:11.68 | 63089 | 77481
6 | 17:13.07 | 4:15.06 | 77482 | 96612
7 | 21:28.13 | 3:31.02 | 96613 | 112439
8 | 24:59.15 | 4:01.24 | 112440 | 130538
9 | 29:00.39 | 3:29.50 | 130539 | 146263
10 | 32:30.14 | 3:29.45 | 146264 | 161983
11 | 35:59.59 | 3:15.63 | 161984 | 176671
12 | 39:15.47 | 3:11.54 | 176672 | 191050
13 | 42:27.26 | 5:27.64 | 191051 | 215639
14 | 47:55.15 | 4:05.40 | 215640 | 234054
15 | 52:00.55 | 3:35.08 | 234055 | 250187
16 | 55:35.63 | 3:35.71 | 250188 | 266383
17 | 59:11.59 | 3:14.57 | 266384 | 280990
18 | 62:26.41 | 3:55.39 | 280991 | 298654
19 | 66:22.05 | 4:04.12 | 298655 | 316966
20 | 70:26.17 | 5:56.52 | 316967 | 343718

Range status and errors

Selected range

Filename F:\tmp\EAC\Various Artists - Жырлар Бяйляме 3\Various Artists - Жырлар Бяйляме 3.wav

Peak level 97.7 %
Extraction speed 6.9 X
Range quality 99.9 %
Copy CRC A4E57867
Copy OK

No errors occurred

AccurateRip summary

Track 1 not present in database
Track 2 not present in database
Track 3 not present in database
Track 4 not present in database
Track 5 not present in database
Track 6 not present in database
Track 7 not present in database
Track 8 not present in database
Track 9 not present in database
Track 10 not present in database
Track 11 not present in database
Track 12 not present in database
Track 13 not present in database
Track 14 not present in database
Track 15 not present in database
Track 16 not present in database
Track 17 not present in database
Track 18 not present in database
Track 19 not present in database
Track 20 not present in database

None of the tracks are present in the AccurateRip database

End of status report

---- CUETools DB Plugin V2.1.6

[CTDB TOCID: PKs1SZR7X7gl5w2e7NBO3RwHDcY-] found
Submit result: PKs1SZR7X7gl5w2e7NBO3RwHDcY- has been uploaded
Track | CTDB Status
1 | (2/2) Accurately ripped
2 | (2/2) Accurately ripped
3 | (2/2) Accurately ripped
4 | (2/2) Accurately ripped
5 | (2/2) Accurately ripped
6 | (2/2) Accurately ripped
7 | (2/2) Accurately ripped
8 | (2/2) Accurately ripped
9 | (2/2) Accurately ripped
10 | (2/2) Accurately ripped
11 | (2/2) Accurately ripped
12 | (2/2) Accurately ripped
13 | (1/2) Differs in 95 samples @01:30:20,01:38:23-01:38:24
14 | (2/2) Accurately ripped
15 | (2/2) Accurately ripped
16 | (2/2) Accurately ripped
17 | (2/2) Accurately ripped
18 | (2/2) Accurately ripped
19 | (2/2) Accurately ripped
20 | (1/2) Differs in 727 samples @03:01:39-03:01:40,03:02:29-03:02:30,03:17:24-03:17:25,03:18:36,03:18:57-03:18:58,03:19:04,03:20:59,03:22:17,03:26:41-03:26:42,03:41:42,03:42:53-03:42:54,03:43:22,05:09:23,05:10:35-05:10:36
If you are sure that your rip contains errors, you can use CUETools to repair it.

==== Log checksum B28D5C7EEEFFC745AE6D7B3445EE82C517359ACEF893FFA091BF35A2A2EDD705 ====
Rafail(Rafail.AS)
Пользователь
Пользователь
 
Раздал: 125.71 ГБ
Скачал: 106.37 ГБ
Ратио: 1.182
Сообщения: 219
Зарегистрирован: 31 июл 2017, 12:18
  • Торрент
Автор: Rafail(Rafail.AS) Хэш: ---
Добавлен: 27 апр 2019, 08:24 Приватный: Нет (DHT включён)
Статус: Проверен
Размер: 543.8 МБ (570 210 885 байт)
Изменил: zip (28 апр 2019, 19:12)
Скачали: 6 (Раздающих: 0%)
Причина:
---
Здоровье: 100%
Сидеров: 2 Личеров: 1
Скорость раздачи: 0 байт/сек Скорость скачивания: 0 байт/сек
Последний сидер: 1 месяц 9 дней 11 часов 36 минут 58 секунд назад Последний личер: 1 месяц 9 дней 11 часов 36 минут 58 секунд назад
Для скачивания торрента необходимо зарегистрироваться или войти на трекер.

  • Похожие торренты
    Ответы
    Просмотры
    Последнее сообщение

Вернуться в Аудио



Кто сейчас на конференции

Сейчас этот форум просматривают: Google [Bot] и гости: 4

cron
Ресурс не предоставляет электронные версии произведений, а занимается лишь коллекционированием и каталогизацией ссылок, присылаемых и публикуемых на форуме нашими читателями. Если вы являетесь правообладателем какого-либо представленного материала и не желаете чтобы ссылка на него находилась в нашем каталоге, свяжитесь с нами и мы незамедлительно удалим её. Файлы для обмена на трекере предоставлены пользователями сайта, и администрация не несёт ответственности за их содержание. Просьба не заливать файлы, защищенные авторскими правами, а также файлы нелегального содержания!
cron ы