(Татарская Эстрада) Шансон - Рестораннар буйлап - Н.Валиев - 2009, APE (image+.cue), lossless

(Татарская Эстрада) Шансон - Рестораннар буйлап - Н.Валиев - 2009, APE (image+.cue), lossless

Сообщение zip » 04 дек 2011, 03:22

  • Постеры
Шансон - Рестораннар буйлап


Жанр: Поп музыка-Татаркая эстрада -Шансон
Год выпуска диска: 2009
Производитель диска: Россия .Барс Рекордс
Аудио кодек: APE
Тип рипа: image+.cue
Битрейт аудио: lossless
Продолжительность: 61:36
1. Рестораннар
2. Мин Кем
3. Бухгалтер
4. Ул Минеке
5. Ышанмыйм
6. Кирэк тугел мина ЗАГС
7. Сизмэден
8. Амнистия
9. Кызлар Колэ
10. Чишмэ Жыры
11. Жаным
12.Ачулан, Эни!
13. Эйлэнеп кайта алсам
14. Конвой
15. Сенелкэем
16. Энием Ярдэмчем
17. Урладым
18. Эллуки

Exact Audio Copy V0.99 prebeta 5 from 4. May 2009

Отчёт EAC об извлечении, выполненном 22. февраля 2010, 14:46

Н.Валиев / Рестораннар буйлап

Дисковод: Optiarc DVD RW AD-7170A Adapter: 2 ID: 0

Режим чтения : Достоверность
Использование точного потока : Да
Отключение кэша аудио : Да
Использование указателей C2 : Нет

Коррекция смещения при чтении : 48
Способность читать области Lead-in и Lead-out : Нет
Заполнение пропущенных сэмплов тишиной : Да
Удаление блоков с тишиной в начале и конце : Нет
При вычислениях CRC использовались нулевые сэмплы : Да
Интерфейс : Встроенный Win32-интерфейс для Win NT/2000

Выходной формат : Внутренние WAV-операции
Формат сэмплов : 44.100 Гц; 16 бит; стерео

TOC извлечённого CD

Трек | Старт | Длительность | Начальный сектор | Конечный сектор
---------------------------------------------------------------------
1 | 0:00.00 | 3:36.68 | 0 | 16267
2 | 3:36.68 | 2:59.41 | 16268 | 29733
3 | 6:36.34 | 3:28.59 | 29734 | 45392
4 | 10:05.18 | 3:34.06 | 45393 | 61448
5 | 13:39.24 | 3:26.37 | 61449 | 76935
6 | 17:05.61 | 3:26.66 | 76936 | 92451
7 | 20:32.52 | 2:24.48 | 92452 | 103299
8 | 22:57.25 | 3:45.13 | 103300 | 120187
9 | 26:42.38 | 2:58.62 | 120188 | 133599
10 | 29:41.25 | 2:49.08 | 133600 | 146282
11 | 32:30.33 | 3:03.10 | 146283 | 160017
12 | 35:33.43 | 2:08.60 | 160018 | 169677
13 | 37:42.28 | 3:38.66 | 169678 | 186093
14 | 41:21.19 | 3:39.63 | 186094 | 202581
15 | 45:01.07 | 3:15.20 | 202582 | 217226
16 | 48:16.27 | 3:40.01 | 217227 | 233727
17 | 51:56.28 | 2:31.74 | 233728 | 245126
18 | 54:28.27 | 7:08.38 | 245127 | 277264

Характеристики диапазона извлечения и сообщения об ошибках

Выбранный диапазон

Имя файла C:\Documents and Settings\Admin\Рабочий стол\релизы\Рестораннар буйлап -Шансон\Н.Валиев - Рестораннар буйлап.wav

Пиковый уровень 100.0 %
Качество диапазона 99.9 %
CRC копии 9DC31E7B
Копирование... OK

Ошибок не произошло

Конец отчёта
Аватара пользователя
zip
Администратор
Администратор
 
Раздал: 13.96 ТБ
Скачал: 557.37 ГБ
Ратио: 25.639
Сообщения: 469
Зарегистрирован: 12 ноя 2011, 19:09
  • Торрент
Автор: zip Хэш: ---
Добавлен: 12 янв 2012, 04:36 Приватный: Нет (DHT включён)
Статус: Проверен
Размер: 376.72 МБ (395 016 038 байт)
Изменил:
---
Скачали: 31 (Раздающих: 0%)
Причина:
---
Здоровье: 100%
Сидеров: 1 Личеров: 0
Скорость раздачи: 0 байт/сек Скорость скачивания: 0 байт/сек
Последний сидер: 10 дней 4 часа 16 минут 51 секунду назад Последний личер: 21 день 1 час 21 минуту 11 секунд назад
Для скачивания торрента необходимо зарегистрироваться или войти на трекер.

Re: (Татарская Эстрада) Шансон - Рестораннар буйлап - Н.Валиев - 2009, APE (image+.cue), lossless

Сообщение zip » 04 дек 2011, 18:02

Очень понравилось
Аватара пользователя
zip
Администратор
Администратор
 
Раздал: 13.96 ТБ
Скачал: 557.37 ГБ
Ратио: 25.639
Сообщения: 469
Зарегистрирован: 12 ноя 2011, 19:09


  • Похожие торренты
    Ответы
    Просмотры
    Последнее сообщение

Вернуться в Аудио



Кто сейчас на конференции

Сейчас этот форум просматривают: Google [Bot] и гости: 1

Ресурс не предоставляет электронные версии произведений, а занимается лишь коллекционированием и каталогизацией ссылок, присылаемых и публикуемых на форуме нашими читателями. Если вы являетесь правообладателем какого-либо представленного материала и не желаете чтобы ссылка на него находилась в нашем каталоге, свяжитесь с нами и мы незамедлительно удалим её. Файлы для обмена на трекере предоставлены пользователями сайта, и администрация не несёт ответственности за их содержание. Просьба не заливать файлы, защищенные авторскими правами, а также файлы нелегального содержания!
cron